pastoribelgi
» » Zainetica - People More Fuel

Zainetica - People More Fuel album mp3

Zainetica - People More Fuel album mp3
Performer:
Zainetica
Album:
People More Fuel
Style:
Abstract, IDM
Released:
2005
FLAC vers. size:
1446 mb
MP3 vers. size:
1346 mb
WMA vers. size:
1394 mb
Other formats
AIFF FLAC XM VQF MP2 MIDI VOC
Rating:
4.4 ★
Votes:
389

from Soul Paradox by Zainetica. Streaming + Download. Includes unlimited streaming via the free Bandcamp app, plus high-quality download in MP3, FLAC and more. Purchasable with gift card. Zainetica is musician and Rednetic Recordings founder Mark Streatfield. He currently lives in London. He has played live in numerous places including California, Germany, New Zealand and around the UK. He records with Wil Bolton (Cheju) as Anzio Green and with Joseph Auer, Utility Player and Cliver Burnes as Lowriders Deluxe on Symbolic Interaction.

Listen to Zainetica Radio featuring songs from People More Fuel free online. Слушать бесплатное интернет-радио, спорт, музыку, новости, разговорное и подкасты. События в прямом эфире, трансляции игр NFL, MLB, NBA, NHL, университетских команд и матчи Премьер-лиги. Спорт, музыка, новости и подкасты. Слушайте аудиоконтент, который для вас наиболее важен.

People More Fuel Zainetica. Unknown Submit Tempo. We are the largest database of beats per minutes in the world. Get the Tempo of more than 6 Million songs.

Zainetica Intelligent Weapons, Stupid People. Zainetica People More Fuel.

Zainetica is musician and Rednetic Recordings founder Mark Streatfield. He currently lives in the east end of London and earns his money as a graphic designer.

9. When the Time Comes. Caution! All audio materials of Zainetica are presented solely for information. All styles of audio music. ru All rights are reserved by their respective owners. On this site you can find any kind of music except for MP3 download.

Zainetica - Soul Paradox Жанр: IDM, Experimental Страна-производитель диска: UK Год издания диска: 2008 Издатель (лейбл): Rednetic Recordings Номер по каталогу: RN019 Аудио кодек: FLAC . lac) Тип рипа: tracks+. wav" WAVE INDEX 01 00:00:00 TRACK 08 AUDIO TITLE "Delicate Wings" PERFORMER "Zainetica" INDEX 00 07:45:25 FILE "08 - Zainetica - Delicate Wings. wav" WAVE INDEX 01 00:00:00 TRACK 09 AUDIO TITLE "People More Fuel" PERFORMER "Zainetica" INDEX 00 06:19:66 FILE "09 - Zainetica - People More Fuel. wav" WAVE INDEX 01 00:00:00 TRACK 10 AUDIO.

Продавец: Интернет-магазин Ozon. Адрес: Россия, Москва, Пресненская набережная, 10. ОГРН: 1027739244741

Tracklist

1 Where I Am Now 8:42
2 From The Interview 4:41
3 To Study Anthropology 7:36
4 People More Fuel 8:07

Credits

  • Written-By, Producer – Mark Streatfield