pastoribelgi
» » Stephane Grappelly - I've Found A New Baby / Alabamy Bound

Stephane Grappelly - I've Found A New Baby / Alabamy Bound album mp3

Stephane Grappelly - I've Found A New Baby / Alabamy Bound album mp3
Performer:
Stephane Grappelly
Album:
I've Found A New Baby / Alabamy Bound
Style:
Swing
Released:
1937
FLAC vers. size:
1250 mb
MP3 vers. size:
1892 mb
WMA vers. size:
1611 mb
Other formats
MP3 AA AC3 AHX MP4 AU MP2
Rating:
4.6 ★
Votes:
952

Stephane Grappelly ‎– I've Found A New Baby, Alabamy Bound. Label: Swing (3) ‎– SW.

I've Found A New Baby. 20. After You've Gone. 11. You Took Advantage Of M. lac. 16. It Had To Be Yo. 05. It Was So Beautiful.

28 32 16034 2 3:33. flac" WAVE INDEX 01 00:00:00 TRACK 10 AUDIO TITLE "I've Found A New Baby" INDEX 00 02:49:00 FILE "10. I've Found A New Baby. flac" WAVE INDEX 01 00:00:00 TRACK 21 AUDIO TITLE "Stephane's Tune" INDEX 00 03:03:48 FILE "21. Stephane's Tune. flac" WAVE INDEX 01 00:00:00.

album: I've Found a New Baby. album: The Jazz Playlist, Pt. 8. Pennies from Heaven. All God's Children Got Rhythm. album: I Got Rhythm, Vol. 4. Sweet Georgia Brown. album: Jazz For Traveling. Eight Days of Chanukah. album: Chanukah: A Singing Celebration. Stéphane Grappelli, - J'attendrai (Tornerai). album: Stephane Grappelly Plays George Gershwin Plus Feeling + Finesse Jazz. Tiger Rag. album: The Best of Jazz.

2. I've Found A New Baby (I Found A New Baby) - Stéphane Grappelly, Michel Warlop, Django Reinhardt. 3. You Took Advantage Of Me - Stéphane Grappelly, Michel Warlop, Django Reinhardt.

Django Reinhardt, Stéphane Grappelli - I've found a new baby 03:03. Django Reinhardt - Chasing Shadows (From "Bioshock 2") 02:57. Qunitett Hot Club Du France - Shine 02:57. Django Reinhardt & Stephane Grappelli - You're Driving Me Crazy 02:54. Quintet of the hot club de France - I've Found a New Baby 03:08. Django Reinhardt, Stéphane Grappelli - Nuages 03:02. Django Reinhardt, Stephane Grappelli - Ultrafox 03:17. Stéphane Grappelli - Alabamy Bound 02:51. Django Reinhardt & Stephane Grappelli - Some of These Days 02:23. Django Reinhardt & Stephane Grappelli - Tiger Rag 02:33.

Sheet Music and Tabs for Stéphane Grappelli. Stéphane Grappelli (26 January, 1908 – 1 December, 1997) was a pioneering jazz violinist who founded with Django Reinhardt in 1934 the "Quintette du Hot Club de France", it was one of the first all-string jazz bands. He has been called "the grandfather of jazz violinists" and continued playing concerts around the world well into his 80s. For the first three decades of his career, he was billed using a gallicised spelling of his last name, Grappelly, reverting to "Grappelli" in 1969. You'd Better Go Now. Le Tien. I've Got My Love to Keep Me Warm. The Way You Look Tonight. It's Only a Paper Moon.

Tracklist Hide Credits

A I've Found A New Baby
Written-By – Spencer Williams
B Alabamy Bound

Credits

  • Guitar – Django Reinhardt
  • Violin – Stephane Grappelly*

Notes

A — Recorded in Paris, November 29, 1937
B — Recorded in Paris, April 27, 1937

Barcode and Other Identifiers

  • Matrix / Runout (A-side label): OLA. 1738
  • Matrix / Runout (B-side label): OLA. 1741
  • Matrix / Runout (A-side runout): OLA 1738-1
  • Matrix / Runout (B-side runout): OLA 1741-1
  • Shezokha
Since there are two duet versions of Grappelli and Django of 1937...One starts straight with a single note intro of Django and sounds faster and the hole song is much more aggressive.The other one starts with some kind of Chord intro of Django, and is more "relaxed".Can you tell which one this is? Thanks much!