pastoribelgi
» » Various - New Horizons For Jazz Ensemble Vol. IV

Various - New Horizons For Jazz Ensemble Vol. IV album mp3

Various - New Horizons For Jazz Ensemble Vol. IV album mp3
Performer:
Album:
New Horizons For Jazz Ensemble Vol. IV
Released:
1980
FLAC vers. size:
1113 mb
MP3 vers. size:
1699 mb
WMA vers. size:
1414 mb
Other formats
VOC DMF WMA AAC RA ADX ASF
Rating:
4.6 ★
Votes:
862

New Horizons For Jazz Ensemble Vol. III. LP6,74 € 8,99 € -25%. Unknown Artist - New Horizons For Jazz Ensemble Vol. III LP. . New Horizons For Jazz Ensemble, The Best Of '79. LP8,99 € 11,99 € -25%. New Horizons For Jazz Ensemble, The Best Of '79 LP. Show all ItemsShow all. Free German deliveries over 80 €.

Original Oldies Vol. 2. LP10,99 €. New Horizons For Jazz Ensemble Vol. LP6,29 € 8,99 € -30%. LP8,39 € 11,99 € -30%.

Avant-Garde Jazz, AACM) Ernest Dawkins New Horizons Ensemble - Chicago Now: Thirty Years Of Great Black Music Vo. - 1997, APE (image+. INDEX 01 00:00:00 TRACK 07 AUDIO TITLE "Just Is Me" PERFORMER "Ernest Dawkins New Horizons Ensemble" INDEX 00 04:53:60 FILE "07 - Just Is M. av" WAVE INDEX 01 00:00:00 FILE "08 - Maghostut Tw. av" WAVE TRACK 08 AUDIO TITLE "Maghostut Two" PERFORMER "Ernest Dawkins New Horizons Ensemble" INDEX 01 00:00:00.

Featured New Releases. Jazz Horizons: Best of .

Club Horizons vol. 2, Jazz Attitude/Various Artists ( TSPH 0800 CD) CD Album. Genre: JazzStyle: Jazz Funk/FusionDuration: Album. George Smith - No Time For Jive - 1987 Columbia/Blue Horizon CD. Case/Insert - Very Good Plus (Insert spine in back tray has been clipped.

Listen free to Various Artists – Die New York Jazz-Lounge, Vol. 1 (The Mambo Craze, Brazilian Sunset and more). Discover more music, concerts, videos, and pictures with the largest catalogue online at Last. A new version of Last. Die New York Jazz-Lounge, Vol. 1. Overview (current section).

Jazz Ensemble Library – Grade 4. You’re Still a Young Man Stephen Kupka and Emilio Castillo/arr. Paul Murtha 02501054 ������������������������������������������������������������. Mike Tomaro The landmark album Birth of the Cool by Miles Davis brought us a unique instrumentation (the nonet) along with distinctive jazz sounds. New titles all include optional parts for flute, clarinet, F horn and tuba, Written for full band, playable with 4 saxes, 3 trumpets, 3 trombones, rhythm section, Full-length recordings included with each arrangement. The Pink Panther . 22.

Tracklist

A1 Spyro-Gyra* Catching The Sun / Cockatoo / Percolator
A2 Spyro-Gyra Combo Series Shaker Song
A3 Billy Byers Double Take
A4 Mike Barone Call Me / White Shadow / Blue Memories / Come On And Dance / Two Steppin' / Extra Crispy
A5 Paul Jennings Peter Gunn / I Don't Want To Walk Without You / WKRP In Cincinnati / Who Can I Turn To? / Jazz Fantasia From Star Trek - The Motion Picture
A6 Dave Barduhn Blues For Waldo / Bein' Green
B1 Jazz Classics For The Young Ensemble Li'l Darlin' / A Child Is Born / Splanky
B2 Jenson Easy Jazz Ensemble Series Flip Top / Yesterday / Shaker Song / Mister Lucky / Sing
B3 Keith Foley Gotcha / Captain Caribe / The Seduction / Roadrunner
B4 Phil Field Dallas / 12th Street Rag / Hart To Hart
B5 Lalo Schifrin Undercurrents / Children Of The World
B6 Ian McDougall Aztec
B7 Mike Vax Gliding / The Big Scramble

Credits

  • Liner Notes – Paul Jennings

Notes

Promotional pressing -- "Not For Sale" on record labels.