pastoribelgi
» » Dutch Dixieland Band - Dutch Dixie College

Dutch Dixieland Band - Dutch Dixie College album mp3

Dutch Dixieland Band - Dutch Dixie College album mp3
Performer:
Dutch Dixieland Band
Album:
Dutch Dixie College
Country:
UK
FLAC vers. size:
1677 mb
MP3 vers. size:
1156 mb
WMA vers. size:
1956 mb
Other formats
AIFF AA WMA XM VOC TTA VQF
Rating:
4.8 ★
Votes:
577

Ragtime, Dixieland, Big Band, New Orleans Jazz, Jump Blues, Neo-Swing. So you can choose the music genre and then singer or band. We want to say thanks for all who supports our site.

More albums from The Dutch Swing College Band: Gems Of Jazz No. 2 by The Dutch Swing College Band. The Dutch Swing College Band Featuring Famous American Jazz Giants by The Dutch Swing College Band. Now! by The Dutch Swing College Band. Digital Dutch by The Dutch Swing College Band. Dutch Swing College At The Sport Palast, Berlin by The Dutch Swing College Band. Swing College At Home by The Dutch Swing College Band. Jazz Sir, That’s Our Baby by The Dutch Swing College Band. Gems Of Jazz by The Dutch Swing College Band. View all albums . Dixieland High Life

Walk With Thee" PERFORMER "Dutch Swing College Band" INDEX 00 03:48:19 FILE "04 - Just A Closer Walk With Thee. wav" WAVE INDEX 01 00:00:00 TRACK 05 AUDIO TITLE "Dixieland Boogie" PERFORMER "Dutch Swing College Band" INDEX 00 04:42:63 FILE "05 - Dixieland Boogie. wav" WAVE INDEX 01 00:00:00 TRACK 06 AUDIO TITLE "The Sheik Of Araby". wav" WAVE INDEX 01 00:00:00 TRACK 15 AUDIO TITLE "When The Saints Go Marching In" PERFORMER "Dutch Swing College Band" INDEX 00 04:33:68 FILE "15 - When The Saints Go Marching I. av" WAVE INDEX 01 00:00:00. Скачивание доступно после регистрации!! Приватный

The Dutch Swing College Band "DSCB" is a traditional dixieland band founded on 5 May 1945 by bandleader and nist Peter Schilperoort. Highly successful in their native home of The Netherlands, the band quickly found an international following.

Dutch Swing College Band. Dixieland Goes Dutch.

Christmas Dixieland Party. A Happy Dixie Christmas. The Dutch Swing College Band. Live In Swing City - Swingin' With Duke. Lincoln Center Jazz Orchestra with Wynton Marsalis.

Tracklist

A1 Georgia Camp Meeting
A2 Dixie Blues
A3 Midnight In Moscow
A4 Bill Bailey Won't You Please Come Home
A5 1919 Rag
A6 Buddy Bolden Blues
B1 Just A Closer Walk With Thee
B2 Carry Me Back To Old Virginny
B3 See See Rider Blues
B4 John Browns Body
B5 Cossack Patrol
B6 Maryland

Other versions

Category Artist Title (Format) Label Category Country Year
40-181 Unknown Artist Dutch Dixie College ‎(Cass, Album) International Artists 40-181 UK 1974